Page 1 of 1

Cineform 8K bitrates and problems

PostPosted: Mon Mar 14, 2016 11:37 am
by transreal360
Hello.

I render three videos with AVP, at High, Medium and Low specs on Cineform render generation with 78,33 GB, 39,98 GB and 28,86 GB respectively sizes for a 3'49'' of video length.

The High video is impossible to be opened with any software. Even MediaInfo doesn't recognize it:
Code: Select all
Complete name                            : High.mov
Format                                   : MPEG-4
Format profile                           : QuickTime
Codec ID                                 : qt 
File size                                : 73.0 GiB

The Medium video is recognized and these are its specifications:
Code: Select all
Complete name                            :Medium.mov
Format                                   : MPEG-4
Format profile                           : QuickTime
Codec ID                                 : qt 
File size                                : 37.2 GiB
Duration                                 : 3mn 49s
Overall bit rate mode                    : Variable
Overall bit rate                         : 1 394 Mbps
Encoded date                             : UTC 2016-03-11 13:33:56
Tagged date                              : UTC 2016-03-11 13:33:56
Writing library                          : Apple QuickTime

Video
ID                                       : 1
Format                                   : CineForm
Codec ID                                 : CFHD
Codec ID/Info                            : CineForm High-Definition (HD) wavelet codec
Duration                                 : 3mn 49s
Bit rate mode                            : Variable
Bit rate                                 : 1 394 Mbps
Width                                    : 7 984 pixels
Height                                   : 3 992 pixels
Display aspect ratio                     : 2.000
Frame rate mode                          : Constant
Frame rate                               : 29.970 fps
Scan type                                : Progressive
Bits/(Pixel*Frame)                       : 1.459
Stream size                              : 37.2 GiB (100%)
Language                                 : English
Encoded date                             : UTC 2016-03-11 13:33:56
Tagged date                              : UTC 2016-03-11 13:33:56
Color primaries                          : BT.709
Transfer characteristics                 : BT.709
Matrix coefficients                      : BT.709

And the Low video:
Code: Select all
Complete name                            :Low.mov
Format                                   : MPEG-4
Format profile                           : QuickTime
Codec ID                                 : qt 
File size                                : 26.9 GiB
Duration                                 : 3mn 49s
Overall bit rate mode                    : Variable
Overall bit rate                         : 1 006 Mbps
Encoded date                             : UTC 2016-03-11 16:44:37
Tagged date                              : UTC 2016-03-12 09:56:22
Writing library                          : Apple QuickTime

Video
ID                                       : 1
Format                                   : CineForm
Codec ID                                 : CFHD
Codec ID/Info                            : CineForm High-Definition (HD) wavelet codec
Duration                                 : 3mn 49s
Bit rate mode                            : Variable
Bit rate                                 : 1 006 Mbps
Width                                    : 7 984 pixels
Height                                   : 3 992 pixels
Display aspect ratio                     : 2.000
Frame rate mode                          : Constant
Frame rate                               : 29.970 fps
Scan type                                : Progressive
Bits/(Pixel*Frame)                       : 1.053
Stream size                              : 26.9 GiB (100%)
Language                                 : English
Encoded date                             : UTC 2016-03-11 16:44:37
Tagged date                              : UTC 2016-03-11 16:44:37
Color primaries                          : BT.709
Transfer characteristics                 : BT.709
Matrix coefficients                      : BT.709


Questions:
  1. I think the output bitrates are a little 'insane'... More than 1000Mbps? What's the point?
  2. It's mandatory to convert the videos to lower bitrates in order to work with them, but maybe anyone could point me another solution..?
  3. Why when I tried to open the Low video with my After Effects CS4 it shows 'this MooV file is damaged or isn't compatible'; Avidemux 2.6.12 and Quicktime 10.4 are unable to open it; and VLC shows 'Codec not supported
    VLC can't decode the «CFHD» format (No description for this codec)'
    even if I've downloaded this decoder, installed and rebooted before?

Thanks in advance for your time.

Best,

P.S.: Statistics for Low video:
Code: Select all
  Total time : 3 h:24 min:17 s
  FPS        : 0.5611
  Decoding   : 3.9 %
  Rendering  : 1e+02 % ?????????? (not after midnight)
  Encoding   : 25 %