Video encoding failed   [SOLVED] - View the solution

no avatar
transreal360
Member
 
Topic author
Posts: 27
Likes: 3 posts
Liked in: 0 post
Joined: Tue Mar 03, 2015 8:37 pm
Info

Video encoding failed

by transreal360 » Fri Sep 25, 2015 4:58 pm

Hi there

I'm trying to upload a video but for three times it failed...

Here's the media info of the video:
Code: Select all
General
Complete name                            : /.../Opening credits_aac.mp4
Format                                   : MPEG-4
Format profile                           : Base Media
Codec ID                                 : isom
File size                                : 81.4 MiB
Duration                                 : 51s 386ms
Overall bit rate mode                    : Variable
Overall bit rate                         : 13.3 Mbps
Writing application                      : Lavf56.25.101

Video
ID                                       : 1
Format                                   : AVC
Format/Info                              : Advanced Video Codec
Format profile                           : High@L5.2
Format settings, CABAC                   : Yes
Format settings, ReFrames                : 4 frames
Codec ID                                 : avc1
Codec ID/Info                            : Advanced Video Coding
Duration                                 : 51s 367ms
Bit rate                                 : 12.9 Mbps
Nominal bit rate                         : 45.0 Mbps
Width                                    : 4 096 pixels
Height                                   : 2 048 pixels
Display aspect ratio                     : 2.000
Frame rate mode                          : Variable
Frame rate                               : 29.708 fps
Original frame rate                      : 30.000 fps
Minimum frame rate                       : 10.000 fps
Maximum frame rate                       : 30.000 fps
Color space                              : YUV
Chroma subsampling                       : 4:2:0
Bit depth                                : 8 bits
Scan type                                : Progressive
Bits/(Pixel*Frame)                       : 0.052
Stream size                              : 78.9 MiB (97%)
Writing library                          : x264 core 142
Encoding settings                        : cabac=1 / ref=3 / deblock=1:0:0 / analyse=0x3:0x133 / me=hex / subme=7 / psy=1 / psy_rd=1.00:0.00 / mixed_ref=1 / me_range=16 / chroma_me=1 / trellis=1 / 8x8dct=1 / cqm=0 / deadzone=21,11 / fast_pskip=1 / chroma_qp_offset=-2 / threads=12 / lookahead_threads=2 / sliced_threads=0 / nr=0 / decimate=1 / interlaced=0 / bluray_compat=0 / constrained_intra=0 / bframes=3 / b_pyramid=2 / b_adapt=1 / b_bias=0 / direct=1 / weightb=1 / open_gop=0 / weightp=2 / keyint=250 / keyint_min=25 / scenecut=40 / intra_refresh=0 / rc_lookahead=40 / rc=2pass / mbtree=1 / bitrate=45000 / ratetol=1.0 / qcomp=0.60 / qpmin=10 / qpmax=51 / qpstep=4 / cplxblur=20.0 / qblur=0.5 / ip_ratio=1.40 / aq=1:1.00

Audio
ID                                       : 2
Format                                   : AAC
Format/Info                              : Advanced Audio Codec
Format profile                           : LC
Codec ID                                 : 40
Duration                                 : 51s 386ms
Bit rate mode                            : Variable
Bit rate                                 : 400 Kbps
Maximum bit rate                         : 448 Kbps
Channel count                            : 2 channels
Channel positions                        : Front: L R
Sampling rate                            : 44.1 KHz
Compression mode                         : Lossy
Stream size                              : 2.45 MiB (3%)
Language                                 : unk


Could you please tell me what's wrong with it?

Also, that will be a good idea to attach the problem to the email you sent when a video is failed to upload. I mean, some extra information about why it failed.

Thanks in advance for your time.

Best,

no avatar
transreal360
Member
 
Topic author
Posts: 27
Likes: 3 posts
Liked in: 0 post
Joined: Tue Mar 03, 2015 8:37 pm
Info

Video encoding failed (NOT SOLVED)

by transreal360 » Mon Oct 05, 2015 4:47 pm

Sorry but the problem is still there. I've made a mistake and clic on 'Solved' button here, but it isn't:
Captura de pantalla 2015-10-05 a las 17.43.00.png


Anybody could help, please?

User avatar
Thomas L
Member
 
Posts: 56
Likes: 0 post
Liked in: 2 posts
Joined: Fri Dec 12, 2014 11:21 am
Info

Re: Video encoding failed

by Thomas L » Wed Oct 07, 2015 9:46 am

Hi,

What software did you use for your rendering? Did you add any metadata "by hand"?

no avatar
transreal360
Member
 
Topic author
Posts: 27
Likes: 3 posts
Liked in: 0 post
Joined: Tue Mar 03, 2015 8:37 pm
Info

Re: Video encoding failed

by transreal360 » Wed Oct 07, 2015 11:25 am

Thanks for answering.

The video has a lot of renders, but it plays ok on Kolor Eyes for desktop (on Mac), and (with proper 360º metadata) on YouTube.

And no, no metadata is put 'by hand'. This is the video with no 360º metadata for YouTube...

This is the media info results for the different steps on the video renders until the final one:

Step 1: No audio
Code: Select all
General
Complete name                            : .../Anima-titles.mp4
Format                                   : MPEG-4
Codec ID                                 : M4V
File size                                : 71.6 MiB
Duration                                 : 41s 808ms
Overall bit rate                         : 14.4 Mbps
Encoded date                             : UTC 2015-09-01 15:10:46
Tagged date                              : UTC 2015-09-01 15:10:50
©TIM                                     : 00:00:05:01
©TSC                                     : 30000
©TSZ                                     : 1001

Video
ID                                       : 1
Format                                   : AVC
Format/Info                              : Advanced Video Codec
Format profile                           : High@L5.1
Format settings, CABAC                   : No
Format settings, ReFrames                : 2 frames
Format settings, GOP                     : M=1, N=30
Codec ID                                 : avc1
Codec ID/Info                            : Advanced Video Coding
Duration                                 : 41s 808ms
Source duration                          : 41s 808ms
Bit rate mode                            : Variable
Bit rate                                 : 14.3 Mbps
Width                                    : 4 096 pixels
Height                                   : 2 048 pixels
Display aspect ratio                     : 2.000
Frame rate mode                          : Variable
Frame rate                               : 29.970 fps
Minimum frame rate                       : 29.970 fps
Maximum frame rate                       : 30.000 fps
Standard                                 : NTSC
Color space                              : YUV
Chroma subsampling                       : 4:2:0
Bit depth                                : 8 bits
Scan type                                : Progressive
Bits/(Pixel*Frame)                       : 0.057
Stream size                              : 71.5 MiB (100%)
Source stream size                       : 71.5 MiB (100%)
Language                                 : English
Encoded date                             : UTC 2015-09-01 15:10:46
Tagged date                              : UTC 2015-09-01 15:10:46
mdhd_Duration                            : 41808
Color primaries                          : BT.709
Transfer characteristics                 : BT.709
Matrix coefficients                      : BT.709


Step 2: Audio (AC3) added
Code: Select all
General
Complete name                            : .../Opening credits.mp4
Format                                   : MPEG-4
Format profile                           : Base Media
Codec ID                                 : isom
File size                                : 80.8 MiB
Duration                                 : 41s 800ms
Overall bit rate                         : 16.2 Mbps
Writing application                      : Lavf56.25.101

Video
ID                                       : 1
Format                                   : AVC
Format/Info                              : Advanced Video Codec
Format profile                           : High@L5.2
Format settings, CABAC                   : Yes
Format settings, ReFrames                : 4 frames
Codec ID                                 : avc1
Codec ID/Info                            : Advanced Video Coding
Duration                                 : 41s 800ms
Bit rate                                 : 15.8 Mbps
Nominal bit rate                         : 45.0 Mbps
Width                                    : 4 096 pixels
Height                                   : 2 048 pixels
Display aspect ratio                     : 2.000
Frame rate mode                          : Variable
Frame rate                               : 29.970 fps
Original frame rate                      : 30.000 fps
Minimum frame rate                       : 15.000 fps
Maximum frame rate                       : 30.000 fps
Color space                              : YUV
Chroma subsampling                       : 4:2:0
Bit depth                                : 8 bits
Scan type                                : Progressive
Bits/(Pixel*Frame)                       : 0.063
Stream size                              : 78.5 MiB (97%)
Writing library                          : x264 core 142
Encoding settings                        : cabac=1 / ref=3 / deblock=1:0:0 / analyse=0x3:0x133 / me=hex / subme=7 / psy=1 / psy_rd=1.00:0.00 / mixed_ref=1 / me_range=16 / chroma_me=1 / trellis=1 / 8x8dct=1 / cqm=0 / deadzone=21,11 / fast_pskip=1 / chroma_qp_offset=-2 / threads=12 / lookahead_threads=2 / sliced_threads=0 / nr=0 / decimate=1 / interlaced=0 / bluray_compat=0 / constrained_intra=0 / bframes=3 / b_pyramid=2 / b_adapt=1 / b_bias=0 / direct=1 / weightb=1 / open_gop=0 / weightp=2 / keyint=250 / keyint_min=25 / scenecut=40 / intra_refresh=0 / rc_lookahead=40 / rc=2pass / mbtree=1 / bitrate=45000 / ratetol=1.0 / qcomp=0.60 / qpmin=10 / qpmax=51 / qpstep=4 / cplxblur=20.0 / qblur=0.5 / ip_ratio=1.40 / aq=1:1.00

Audio
ID                                       : 2
Format                                   : AC-3
Format/Info                              : Audio Coding 3
Mode extension                           : CM (complete main)
Format settings, Endianness              : Big
Codec ID                                 : ac-3
Duration                                 : 41s 762ms
Bit rate mode                            : Constant
Bit rate                                 : 448 Kbps
Channel count                            : 2 channels
Channel positions                        : Front: L R
Sampling rate                            : 44.1 KHz
Bit depth                                : 16 bits
Compression mode                         : Lossy
Stream size                              : 2.23 MiB (3%)


Step 3: Added white screen and extended audio
Code: Select all
General
Complete name                            : .../Opening credits_.mp4
Format                                   : MPEG-4
Format profile                           : Base Media
Codec ID                                 : isom
File size                                : 81.7 MiB
Duration                                 : 51s 375ms
Overall bit rate                         : 13.3 Mbps
Writing application                      : Lavf56.25.101

Video
ID                                       : 1
Format                                   : AVC
Format/Info                              : Advanced Video Codec
Format profile                           : High@L5.2
Format settings, CABAC                   : Yes
Format settings, ReFrames                : 4 frames
Codec ID                                 : avc1
Codec ID/Info                            : Advanced Video Coding
Duration                                 : 51s 367ms
Bit rate                                 : 12.9 Mbps
Nominal bit rate                         : 45.0 Mbps
Width                                    : 4 096 pixels
Height                                   : 2 048 pixels
Display aspect ratio                     : 2.000
Frame rate mode                          : Variable
Frame rate                               : 29.708 fps
Original frame rate                      : 30.000 fps
Minimum frame rate                       : 10.000 fps
Maximum frame rate                       : 30.000 fps
Color space                              : YUV
Chroma subsampling                       : 4:2:0
Bit depth                                : 8 bits
Scan type                                : Progressive
Bits/(Pixel*Frame)                       : 0.052
Stream size                              : 78.9 MiB (97%)
Writing library                          : x264 core 142
Encoding settings                        : cabac=1 / ref=3 / deblock=1:0:0 / analyse=0x3:0x133 / me=hex / subme=7 / psy=1 / psy_rd=1.00:0.00 / mixed_ref=1 / me_range=16 / chroma_me=1 / trellis=1 / 8x8dct=1 / cqm=0 / deadzone=21,11 / fast_pskip=1 / chroma_qp_offset=-2 / threads=12 / lookahead_threads=2 / sliced_threads=0 / nr=0 / decimate=1 / interlaced=0 / bluray_compat=0 / constrained_intra=0 / bframes=3 / b_pyramid=2 / b_adapt=1 / b_bias=0 / direct=1 / weightb=1 / open_gop=0 / weightp=2 / keyint=250 / keyint_min=25 / scenecut=40 / intra_refresh=0 / rc_lookahead=40 / rc=2pass / mbtree=1 / bitrate=45000 / ratetol=1.0 / qcomp=0.60 / qpmin=10 / qpmax=51 / qpstep=4 / cplxblur=20.0 / qblur=0.5 / ip_ratio=1.40 / aq=1:1.00

Audio
ID                                       : 2
Format                                   : AC-3
Format/Info                              : Audio Coding 3
Mode extension                           : CM (complete main)
Format settings, Endianness              : Big
Codec ID                                 : ac-3
Duration                                 : 51s 375ms
Bit rate mode                            : Constant
Bit rate                                 : 448 Kbps
Channel count                            : 2 channels
Channel positions                        : Front: L R
Sampling rate                            : 44.1 KHz
Bit depth                                : 16 bits
Compression mode                         : Lossy
Stream size                              : 2.74 MiB (3%)


Step 4 (final): Converting audio to AAC (same as first post)
Code: Select all
General
Complete name                            : .../Opening credits_aac.mp4
Format                                   : MPEG-4
Format profile                           : Base Media
Codec ID                                 : isom
File size                                : 81.4 MiB
Duration                                 : 51s 386ms
Overall bit rate mode                    : Variable
Overall bit rate                         : 13.3 Mbps
Writing application                      : Lavf56.25.101

Video
ID                                       : 1
Format                                   : AVC
Format/Info                              : Advanced Video Codec
Format profile                           : High@L5.2
Format settings, CABAC                   : Yes
Format settings, ReFrames                : 4 frames
Codec ID                                 : avc1
Codec ID/Info                            : Advanced Video Coding
Duration                                 : 51s 367ms
Bit rate                                 : 12.9 Mbps
Nominal bit rate                         : 45.0 Mbps
Width                                    : 4 096 pixels
Height                                   : 2 048 pixels
Display aspect ratio                     : 2.000
Frame rate mode                          : Variable
Frame rate                               : 29.708 fps
Original frame rate                      : 30.000 fps
Minimum frame rate                       : 10.000 fps
Maximum frame rate                       : 30.000 fps
Color space                              : YUV
Chroma subsampling                       : 4:2:0
Bit depth                                : 8 bits
Scan type                                : Progressive
Bits/(Pixel*Frame)                       : 0.052
Stream size                              : 78.9 MiB (97%)
Writing library                          : x264 core 142
Encoding settings                        : cabac=1 / ref=3 / deblock=1:0:0 / analyse=0x3:0x133 / me=hex / subme=7 / psy=1 / psy_rd=1.00:0.00 / mixed_ref=1 / me_range=16 / chroma_me=1 / trellis=1 / 8x8dct=1 / cqm=0 / deadzone=21,11 / fast_pskip=1 / chroma_qp_offset=-2 / threads=12 / lookahead_threads=2 / sliced_threads=0 / nr=0 / decimate=1 / interlaced=0 / bluray_compat=0 / constrained_intra=0 / bframes=3 / b_pyramid=2 / b_adapt=1 / b_bias=0 / direct=1 / weightb=1 / open_gop=0 / weightp=2 / keyint=250 / keyint_min=25 / scenecut=40 / intra_refresh=0 / rc_lookahead=40 / rc=2pass / mbtree=1 / bitrate=45000 / ratetol=1.0 / qcomp=0.60 / qpmin=10 / qpmax=51 / qpstep=4 / cplxblur=20.0 / qblur=0.5 / ip_ratio=1.40 / aq=1:1.00

Audio
ID                                       : 2
Format                                   : AAC
Format/Info                              : Advanced Audio Codec
Format profile                           : LC
Codec ID                                 : 40
Duration                                 : 51s 386ms
Bit rate mode                            : Variable
Bit rate                                 : 400 Kbps
Maximum bit rate                         : 448 Kbps
Channel count                            : 2 channels
Channel positions                        : Front: L R
Sampling rate                            : 44.1 KHz
Compression mode                         : Lossy
Stream size                              : 2.45 MiB (3%)
Language                                 : unk


Thanks in advance for your time.

User avatar
martin.arnoux
Kolor Team
 
Posts: 544
Likes: 1 post
Liked in: 27 posts
Joined: Wed Feb 26, 2014 2:57 pm
Info

Re: Video encoding failed  [SOLVED]

by martin.arnoux » Mon Oct 12, 2015 10:45 am

Hey!

Frame rate mode : Variable
Frame rate : 29.708 fps
Original frame rate : 30.000 fps
Minimum frame rate : 10.000 fps
Maximum frame rate : 30.000 fps


This is your problem. We cannot deal with a variable framerate as many other encoders.

Cheers,

Martin

transreal360 likes this post.


Who is online

Users browsing this forum: No registered users and 0 guests

cron